Обработка за 0сек. · www.dwnld.net.ua - DoWNLoaD.net.ua · Обратная связь · Рекомендую:
Лай Ши, последний евнух Китая / Lai Shi, China's Last Eunuch (Чи Люн «Джэйкоб» Чунг / Chi Leung 'Jacob' Cheung) [1988, Гонконг, драма, DVDRip] VO :: dwnld.net.ua

Лай Ши, последний евнух Китая / Lai Shi, China's Last Eunuch (Чи Люн «Джэйкоб» Чунг / Chi Leung 'Jacob' Cheung) [1988, Гонконг, драма, DVDRip] VO

Страницы:  1

Модераторы 

Ответить
Статистика раздачи
Размер:  1.37 GB   |   Зарегистрирован:  2 года 7 месяцев   |   .torrent скачан:  411 раз

Полный источник: был сегодня

  Личи:  1  [  0 KB/s  ]   Подробная статистика пиров
  Мои сообщения  |  Опции показа
Автор
Сообщение

Замстуддекан

Стаж: 3 года 11 месяцев

Сообщений: 177

flag

27-Авг-11 12:36 (2 года 7 месяцев назад, ред. 27-Авг-11 13:04)

 

Лай Ши, последний евнух Китая / Lai Shi, China's Last Eunuch
Страна: Гонконг
Жанр: драма
Год выпуска: 1988
Продолжительность: 01:26:43
Перевод: Любительский (одноголосый закадровый) tong
Озвучивание: Jet
Cубтитры: нет
Режиссер: Чи Люн «Джэйкоб» Чунг / Chi Leung 'Jacob' Cheung
В ролях: Саммо Хунг Кам-Бо, Лам Чинг-Йинг, Макс Мок, Энди Лау, Ву Ма, Джеймс Тьен, Айрин Ван, Энтони Чан, Манфред Вонг, Альфред Чун, Ирен Ван, Полин Вонг
Описание: Династия Цин доживает последние деньки, император фактически лишен каких-либо полномочий, а придворные евнухи превратились из некогда могущественных вершителей судеб во всеобщее посмешище. Однако мальчишка Лай Ши, живущий в небольшой деревушке, уверен, что все образуется, и заставляет своего отца кастрировать себя. Проходят годы, Лай Ши вырос, но служит не при дворе императора, а в театральной труппе — тот факт, что он евнух, он тщательно скрывает…
Сэмпл: http://multi-up.com/546799
Качество видео: DVDRip
Формат видео: AVI
Видео: XviD, 704х432, 1.630, 29.970 кадр/сек, 2058 Кбит/сек
Аудио: AC-3, 48,0 КГц, 192 Кбит/сек, 2 канала

MediaInfo

Общее
Полное имя : D:\Strong DC\Lai Shi.avi
Формат : AVI
Формат/Информация : Audio Video Interleave
Размер файла : 1,37 Гбайт
Продолжительность : 1 ч. 26 м.
Общий поток : 2258 Кбит/сек
Программа кодирования : VirtualDubMod 1.5.4.1 (build 2178/release)
Библиотека кодирования : VirtualDubMod build 2178/release
Видео
Идентификатор : 0
Формат : MPEG-4 Visual
Профиль формата : Simple@L3
Параметр BVOP формата : 1
Параметр QPel формата : Нет
Параметр GMC формата : Без точки перехода
Параметр матрицы формата : Выборочная
Идентификатор кодека : XVID
Идентификатор кодека/Подсказка : XviD
Продолжительность : 1 ч. 26 м.
Битрейт : 2058 Кбит/сек
Ширина : 704 пикс.
Высота : 432 пикс.
Соотношение сторон : 1,630
Частота кадров : 29,970 кадр/сек
Цветовое пространство : YUV
Подвыборка цветности : 4:2:0
Битовая глубина : 8 бит
Тип развёртки : Прогрессивная
Метод сжатия : С потерями
Бит/(Пиксели*Кадры) : 0.226
Размер потока : 1,25 Гбайт (91%)
Библиотека кодирования : XviD 1.0.1 (UTC 2004-06-05)
Аудио
Идентификатор : 1
Формат : AC-3
Формат/Информация : Audio Coding 3
Расширение режима : CM (complete main)
Идентификатор кодека : 2000
Продолжительность : 1 ч. 26 м.
Вид битрейта : Постоянный
Битрейт : 192 Кбит/сек
Каналы : 2 канала
Расположение каналов : Front: L R
Частота : 48,0 КГц
Битовая глубина : 16 бит
Метод сжатия : С потерями
Размер потока : 119 Мбайт (9%)
Выравнивание : Разделение по промежуткам
Продолжительность промежутка : 96 мс. (2,88 видеокадра)
Время предзагрузки промежутка : 96 ms
Язык : Russian

Скриншот c названием фильма

Скриншоты



Торрент: Зарегистрирован  [ 27-Авг-11 12:36 ] · DE71CA9635B64A28F0E6C90DD4ED63AC9BC97F7D

Скачать .torrent

14 KB

Статус: # сомнительно
.torrent скачан: 411 раз
Размер: 1.37 GB
[Профиль]   

bm11

Moderator

Стаж: 5 лет 3 месяца

Сообщений: 14739

Откуда: RG All Films

flag

27-Авг-11 12:59 (спустя 22 минуты)

 

Видео: XviD, 704х432, 1.630, 29.970 кадр/сек, 2058 Кбит/сек

Критерии присвоения статусов # сомнительно ⇒
Дооформили раздачу? - в ЛС со ссылкой на раздачу Я живу в постоянном страхе, что меня поймут правильно. О. Уайлд.
[Профиль]   

loxaba

Стаж: 4 года 9 месяцев

Сообщений: 191

flag

28-Авг-11 15:55 (спустя 1 день 2 часа)

 

Спасибо за раздачу а ДВД5 выставлять или не надо тоже с переводом Джета
[Профиль]   
 
Ответить
Loading...
Error